Forum Index > Filme, Cinematografie > Video help (FAQ) > Folosirea corectă a Media Info / BD Info

#0 by StarD (5) (0 mesaje) at 2012-03-02 20:38:50 (289 săptămâni în urmă) - [Link]Top
Media Info
1. Descărcăm Media Info (de aici)

2. O instalăm

3. La prima lansare se va deschide fereastra cu setări, unde selectăm următoarele opţiuni ca pe screen
text ascunsскрытый текст
ÎnchideЗакрыть

4. Acum pentru fiecare fişier media putem lansa Media Info din meniul contextual (click dreapta pe fişier)
text ascunsскрытый текст
ÎnchideЗакрыть

5. Primim informaţia de care avem nevoie
text ascunsскрытый текст
ÎnchideЗакрыть

6. O copiem şi o lipim în descrierea torrentului sub spoiler.

Media Info
The.Girl.With.The.Dragon.Tattoo.2011.720p.BluRay.x264.Rus.Ukr.Eng.Commentary.Subs-HDChina.mkv
Format                          : Matroska
File size                        : 8.52 GiB
Duration                        : 2h 38mn
Overall bit rate                : 7 709 Kbps
Encoded date                    : UTC 2012-03-02 15:35:12
Writing application              : mkvmerge v5.2.0 ('I can't explain') built on Dec 18 2011 18:12:03
Writing library                  : libebml v1.2.3 + libmatroska v1.3.0

Video
ID                              : 1
Format                          : AVC
Format/Info                      : Advanced Video Codec
Format profile                  : [email protected]
Format settings, CABAC          : Yes
Format settings, ReFrames        : 12 frames
Format settings, GOP            : M=4, N=32
Codec ID                        : V_MPEG4/ISO/AVC
Duration                        : 2h 38mn
Bit rate                        : 5 109 Kbps
Width                            : 1 280 pixels
Height                          : 532 pixels
Display aspect ratio            : 2.40:1
Frame rate                      : 23.976 fps
Color space                      : YUV
Chroma subsampling              : 4:2:0
Bit depth                        : 8 bits
Scan type                        : Progressive
Bits/(Pixel*Frame)              : 0.313
Stream size                      : 5.48 GiB (64%)
Writing library                  : x264 core 120 r2164 da19765
Encoding settings                : cabac=1 / ref=12 / deblock=1:-3:-3 / analyse=0x3:0x133 / me=umh /
subme=10 / psy=1 / psy_rd=1.00:0.00 / mixed_ref=1 / me_range=48 / chroma_me=1 / trellis=2 /
8x8dct=1 / cqm=0 / deadzone=21,11 / fast_pskip=0 / chroma_qp_offset=-2 / threads=12 /
sliced_threads=0 / nr=0 / decimate=0 / interlaced=0 / bluray_compat=0 / constrained_intra=0 /
bframes=8 / b_pyramid=2 / b_adapt=2 / b_bias=0 / direct=3 / weightb=1 / open_gop=0 / weightp=2 /
keyint=240 / keyint_min=24 / scenecut=40 / intra_refresh=0 / rc=2pass / mbtree=0 / bitrate=5109 /
ratetol=1.0 / qcomp=0.70 / qpmin=0 / qpmax=69 / qpstep=4 / cplxblur=20.0 / qblur=0.5 / ip_ratio=1.40
/ pb_ratio=1.25 / aq=1:1.10
Language                        : English

Audio #1
ID                              : 2
Format                          : AC-3
Format/Info                      : Audio Coding 3
Mode extension                  : CM (complete main)
Codec ID                        : A_AC3
Duration                        : 2h 38mn
Bit rate mode                    : Constant
Bit rate                        : 448 Kbps
Channel(s)                      : 6 channels
Channel positions                : Front: L C R, Side: L R, LFE
Sampling rate                    : 48.0 KHz
Bit depth                        : 16 bits
Compression mode                : Lossy
Stream size                      : 507 MiB (6%)
Title                            : R5
Language                        : Russian

Audio #2
ID                              : 3
Format                          : AC-3
Format/Info                      : Audio Coding 3
Mode extension                  : CM (complete main)
Codec ID                        : A_AC3
Duration                        : 2h 38mn
Bit rate mode                    : Constant
Bit rate                        : 448 Kbps
Channel(s)                      : 6 channels
Channel positions                : Front: L C R, Side: L R, LFE
Sampling rate                    : 48.0 KHz
Bit depth                        : 16 bits
Compression mode                : Lossy
Stream size                      : 507 MiB (6%)
Title                            : R5
Language                        : Ukrainian

Audio #3
ID                              : 4
Format                          : DTS
Format/Info                      : Digital Theater Systems
Codec ID                        : A_DTS
Duration                        : 2h 38mn
Bit rate mode                    : Constant
Bit rate                        : 1 510 Kbps
Channel(s)                      : 6 channels
Channel positions                : Front: L C R, Side: L R, LFE
Sampling rate                    : 48.0 KHz
Bit depth                        : 16 bits
Compression mode                : Lossy
Stream size                      : 1.67 GiB (20%)
Language                        : English

Audio #4
ID                              : 5
Format                          : AC-3
Format/Info                      : Audio Coding 3
Format profile                  : Dolby Digital
Mode extension                  : CM (complete main)
Codec ID                        : A_AC3
Duration                        : 2h 38mn
Bit rate mode                    : Constant
Bit rate                        : 192 Kbps
Channel(s)                      : 2 channels
Channel positions                : Front: L R
Sampling rate                    : 48.0 KHz
Bit depth                        : 16 bits
Compression mode                : Lossy
Stream size                      : 217 MiB (2%)
Title                            : commentary
Language                        : English

Text #1
ID                              : 6
Format                          : UTF-8
Codec ID                        : S_TEXT/UTF8
Codec ID/Info                    : UTF-8 Plain Text
Title                            : forced
Language                        : Russian

Text #2
ID                              : 7
Format                          : UTF-8
Codec ID                        : S_TEXT/UTF8
Codec ID/Info                    : UTF-8 Plain Text
Title                            : full
Language                        : Russian

Text #3
ID                              : 8
Format                          : UTF-8
Codec ID                        : S_TEXT/UTF8
Codec ID/Info                    : UTF-8 Plain Text
Language                        : Romanian

Text #4
ID                              : 9
Format                          : UTF-8
Codec ID                        : S_TEXT/UTF8
Codec ID/Info                    : UTF-8 Plain Text
Language                        : English

ÎnchideЗакрыть
ÎnchideЗакрыть
BD Info
1. Descărcăm BD Info (de aici)

2. Deschidem programa (nu are nevoie de instalare) şi selectăm folderul care conţine Blu-ray discul sau Remux-ul în format BDAV cu ajutorul butonul Browse
text ascunsскрытый текст
ÎnchideЗакрыть

3. Selectăm playlist-urile care au durata filmului (restul sunt pentru Bonus-urile care le conţine discul)
text ascunsскрытый текст
ÎnchideЗакрыть

4. Apăsăm butonul Scan Bitrates

5. Aşteptăm până se termină scanarea
text ascunsскрытый текст
ÎnchideЗакрыть
După scanare apare aşa o fereastră
text ascunsскрытый текст
ÎnchideЗакрыть

6. Apăsăm butonul View Report
text ascunsскрытый текст
ÎnchideЗакрыть
Va apărea o fereastra cu informaţia necesară
text ascunsскрытый текст
ÎnchideЗакрыть
Copiem doar ce e necesar, de exemplu:

BD Info
DISC INFO:

Disc Title:    [Луна 2112  (2009  Moon) Blu-ray Disc]
Disc Size:      32 716 311 850 bytes
Protection:    AACS
BD-Java:        Yes
BDInfo:        0.5.6

PLAYLIST REPORT:

Name:                  00001.MPLS
Length:                1:37:09 (h:m:s)
Size:                  23 087 861 760 bytes
Total Bitrate:          31,68 Mbps

VIDEO:

Codec                  Bitrate            Description   
-----                  -------            -----------   
MPEG-4 AVC Video        24665 kbps          1080p / 23,976 fps / 16:9 / High Profile 4.1

AUDIO:

Codec                          Language        Bitrate        Description   
-----                          --------        -------        -----------   
DTS-HD Master Audio            English        2883 kbps      5.1 / 48 kHz / 2883 kbps / 24-bit (DTS Core: 5.1 / 48 kHz / 1509 kbps / 24-bit)
DTS Audio                      Russian        1509 kbps      5.1 / 48 kHz / 1509 kbps / 24-bit
Dolby Digital Audio            English        192 kbps        2.0 / 48 kHz / 192 kbps / Dolby Surround
Dolby Digital Audio            English        192 kbps        2.0 / 48 kHz / 192 kbps / Dolby Surround

SUBTITLES:

Codec                          Language        Bitrate        Description   
-----                          --------        -------        -----------   
Presentation Graphics          English        27,306 kbps                   
Presentation Graphics          English        27,317 kbps                   
Presentation Graphics          English        25,038 kbps                   
Presentation Graphics          English        88,566 kbps                   
Presentation Graphics          English        129,386 kbps                   
Presentation Graphics          Chinese        19,681 kbps                   
Presentation Graphics          Indonesian      21,443 kbps                   
Presentation Graphics          Russian        19,169 kbps                   
Presentation Graphics          Thai            27,839 kbps   
ÎnchideЗакрыть
ÎnchideЗакрыть

În spoilerul cu Media Info e interzis de folosit tag-uri, în afară de [pre] şi [code].

Editat de către StarD la 2012-03-03 12:49:16




Mesaj util ?   Da / Nu   29 / 0   29 puncte


<< Precedenta      Următoarea >>


<< Precedenta      Următoarea >>

Forum Index > Filme, Cinematografie > Video help (FAQ) > Folosirea corectă a Media Info / BD Info

Această temă este închisă. Nu puteţi posta mesaje noi.


Navigare rapidă:


Comunitatea digitală din Moldova. Să adunăm și să organizăm conținutul autohton de pe întreg internet pe un singur site web.